Ffmpeg stream audio

x2 Extract audio stream from video without re-encoding# ffmpeg -i input-video.avi -vn -acodec copy output-audio.aac-vn is no video.-acodec copy use the same audio stream that's already in there. Rotate a video with FFmpeg# # Rotate 90 clockwise: ffmpeg -i in.mov -vf "transpose=1" out.mov. For the transpose parameter you can pass:There is a specific FFMPEG parameter to filter out all audio streams called -an . This parameter disables audio recording i.e. automatic selection or mapping of any audio stream in the output file. ffmpeg \ -i video1.mp4 \ -an \ -c copy \ -y output.mp4 The output.mp4 won't include any audio stream.Supports resolutions up to 4k and capture from SDI, HDMI, webcam, JACK & Pulse audio, IP stream, X11 screen and Windows... Downloads: 1 This Week Last Update: 2022-01-30. See Project.1 I really need some help with using FFMPEG to stream video and audio together through RTMP .I've overclocked my raspi 2 and tried as much as I could so far. The video streams fine but I can't hear any audio. I just hear random click sounds.Please help :Mar 10, 2011 · For extracting purposes, we’re most interested that the file has AAC audio. Knowing this, all we need to do is type the following command: Here’s what the different parts of the previous command do: ffmpeg – launches FFmpeg. -i Bohemian_Rhapsody.flv – provides FFmpeg with the name of the input file. -vn – tells FFmpeg to ignore the ... This article explains how to use FFmpeg to extract the audio stream from a video, either without re-encoding (keeping the original format), or converting the resulting audio file to CBR (constant bitrate) or VBR (variable bitrate) MP3 or Ogg Vorbis. To use the FFmpeg examples / commands below, you'll need to have FFmpeg installed on your system. Optionally also install libmp3lame for ...ffmpeg Save incoming RTP audio only stream to file 0 ReSample RTP Audio data over Socket as PCM data using FFMPEG 2 Using FFMPEG To Fill in Gaps of a Raw Audio UDP Stream Hot Network Questions If a creature's best food source was 4,000 feet above it, and only rarely fell from that height, how would it evolve to eat that food? Super Mario 64 RNGMar 10, 2011 · For extracting purposes, we’re most interested that the file has AAC audio. Knowing this, all we need to do is type the following command: Here’s what the different parts of the previous command do: ffmpeg – launches FFmpeg. -i Bohemian_Rhapsody.flv – provides FFmpeg with the name of the input file. -vn – tells FFmpeg to ignore the ... Receiving with ffplay FFmpeg is a multiplatform, open-source library to record, convert and stream video and audio files. Created in 2000, it is a powerful command-line tool that runs on Linux, Windows and Mac operating systems.There is a specific FFMPEG parameter to filter out all audio streams called -an . This parameter disables audio recording i.e. automatic selection or mapping of any audio stream in the output file. ffmpeg \ -i video1.mp4 \ -an \ -c copy \ -y output.mp4 The output.mp4 won't include any audio stream.The original descriptors are identified by " (AC-3 / 0x332D4341)" information. When using the option "-mpegts_flags +system_b", ffmpeg outputs the TS file with the following audio characteristics: Stream #0:1 [0x101] (por): Audio: ac3 ( [6] [0] [0] [0] / 0x0006), 48000Hz, stereo, fltp, 448 kb/s. This last option does seem to change stream type ... Now, to split the file, use the following command : 1. ffmpeg -i Midsommar.mkv -map 0:a -acodec copy Midsommar.aac. Extracting Audio From The Video File using ffmpeg. In this command, -i flag signifies input (the video file) and map 0:a picks up the available audio streams. -codec flag copies the picked up audio stream (without re-encoding it) Use the "atempo" filter: ffmpeg -i input.mp4 -filter:a "atempo=0.5" -vn output.aac. The above example will extract the audio stream from the input video, slow it down by 2 and reencode it into an AAC audio file. The parameter for atempo must be between 0.5 and 2.0. If you want to slow it down even more, you can use the atempo filter more than once.Oct 16, 2019 · I tried the following command string which worked the first time. ffmpeg -i video.mp4 -i audio.mp3 -c:v copy -c:a aac muxed.mp4. To explain, after designating the two input files, the script copies the existing video file as-is (c:v copy), converts the MP3 audio to aac (c:a aac), and muxes the two into muxed.mp4. Then I tried this: FFmpeg is a command-line tool that converts audio or video formats. It can also capture and encode in real-time from various hardware and software sources such as a TV capture card. Basically, it is a wrapper that converts RTSP to HLS. (HLS stands for HTTP Live Streaming.The original descriptors are identified by " (AC-3 / 0x332D4341)" information. When using the option "-mpegts_flags +system_b", ffmpeg outputs the TS file with the following audio characteristics: Stream #0:1 [0x101] (por): Audio: ac3 ( [6] [0] [0] [0] / 0x0006), 48000Hz, stereo, fltp, 448 kb/s. This last option does seem to change stream type ...This is the audio equivelent to "hello world", and it's the first step in getting ready to stream audio. ffmpeg. ffmpeg can work very well for simple capture/encode/streaming scenarios ... depending on the linux distribution. To explain this, we have to talk about the two flavors of ffmpeg: the "mainline" version, and the one which comes with ...FFmpeg is a command-line tool that converts audio or video formats. It can also capture and encode in real-time from various hardware and software sources such as a TV capture card. Basically, it is a wrapper that converts RTSP to HLS. (HLS stands for HTTP Live Streaming.FFMpeg Streaming via UDP. Hi everyone, I am trying to achieve a *P2P *connection via *UDP *and for that I'm. following the wiki guide. On my server I am using: *ffmpeg -f dshow -video_size 640x360 -rtbufsize 702000k -framerate 30 -i. video="Integrated Camera":audio="Microphone (5- Logitech USB Headset H340)"Streaming a simple RTP audio stream from FFmpeg FFmpeg can stream a single stream using the RTP protocol. In order to avoid buffering problems on the other hand, the streaming should be done through the -re option, which means that the stream will be streamed in real-time (i.e. it slows it down to simulate a live streaming source .Attempt #2. (ALSA method worked, but audio is quiet!) Found these 2 methods in a blog post titled: Broadcasting to twitch.tv using ffmpeg. First set these variables like so: SIZE=”1600×1200″ BITRATE=”128k” FRAMERATE=”20″ KEY=”your key here”. Then use this for ALSA: Oct 16, 2019 · I tried the following command string which worked the first time. ffmpeg -i video.mp4 -i audio.mp3 -c:v copy -c:a aac muxed.mp4. To explain, after designating the two input files, the script copies the existing video file as-is (c:v copy), converts the MP3 audio to aac (c:a aac), and muxes the two into muxed.mp4. Then I tried this: [email protected]: 4.4.2: Play, record, convert, and stream audio and video: [email protected]: 2.8.20: Play, record, convert, and stream audio and video 7 There are two solutions I can visualize for this scenario: Saving the file to a remote computer Having a live stream broadcast so a remote computer can receive the audio Saving the file This is probably the easiest method. Allow the stream to finish recording then copy it to a predetermined location on the network.Dec 08, 2021 · FFmpeg is a powerful command-line application able to record, stream, and convert multimedia files between multiple file types. This is great for compatibility with audio platforms with different format requirements. May 21, 2019 · 8. Removing Audio Stream From A Video File. If you don't want audio from a video file, use -an flag. $ ffmpeg -i input.mp4 -an output.mp4. Here, 'an' indicates no audio recording. In other words, this option will mute the audio. The above command will undo all audio related flags. 9. Removing Video Stream From A Media File Jul 05, 2021 · FFmpeg is a command-line tool for converting audio and video formats, and it can also capture and encode in real-time from hardware and software sources. FFmpeg streaming, as you might now guess, is incorporating FFmpeg into your live streaming workflow. It’s a whole suite of tools with significant capabilities for live streaming, it can work ... Another very useful and common operation is extracting audio from video using FFmpeg. You can do this with and without re-encoding the audio. In the first case, let's take a look at extracting the audio out of a media file and storing it without re-encoding it. Extracting the audio involves discarding the video, right?May 14, 2022 · The size of the encoded Ac3 IS 722Mb. (real info, not copied). You can test this encoding with 320k instead of 640k. This will give you a smaller output. Quote. 14th May 2022 10:31 #3. jagabo. Member. Dec 2005. I suspect MediaInfo is simply wrong about the size of the AC3 stream. 1 I really need some help with using FFMPEG to stream video and audio together through RTMP .I've overclocked my raspi 2 and tried as much as I could so far. The video streams fine but I can't hear any audio. I just hear random click sounds.Please help :Attempt #2. (ALSA method worked, but audio is quiet!) Found these 2 methods in a blog post titled: Broadcasting to twitch.tv using ffmpeg. First set these variables like so: SIZE=”1600×1200″ BITRATE=”128k” FRAMERATE=”20″ KEY=”your key here”. Then use this for ALSA: Clever FFmpeg GUI is a small, but smart GUI for FFmpeg. It processes Audio and Video streams separately. These can be muxed after processing. It's for Windows Systems, portable, x86 and x64. Change aspect ratio, Change Audio and Subtitles stream language, Change profile level without recoding (for x264 and hevc).In this scenario I use separate host for the tools. Flowplayer is installed on a server running Apache, crtmp server is on a separate server and ffmpeg is installed on the streaming desktop. 2 Tools used. ffmpeg: This is the audio and video encoder. I will use this to capture the desktop with x11grab, audio from pulse and webcam from video4linux2. To extract the audio from the video without re-encoding, run the command: 1. ffmpeg -i BigBuckBunny.mp4 -vn -acodec copy BigBuckBunnyAudio.aac. In the command above, we use the -I flag to specify the input video. The -vn flags tell ffmpeg to strip the video stream from the output file. Finally, the -acodec copy tells ffmpeg to use the already ... Please keep in mind that the Docker image doesn't include FFmpeg . if you need to use FFmpeg for an external command or anything else, you need to build a Docker image that contains both rtsp -simple-server and FFmpeg , by following instructions here. Basic usage. Publish a stream. For instance, you can publish a video/audio file with FFmpeg:.Stream FFMPEG based Audio and Video using WebRtc. It is the most fastest P2P based streamer which gets Audio and Video from FFMPEG and then stream it to **WebRtc Endpoints** (Android, iOS, Web) and **Media Servers** like (Ant-Media). May 14, 2022 · The size of the encoded Ac3 IS 722Mb. (real info, not copied). You can test this encoding with 320k instead of 640k. This will give you a smaller output. Quote. 14th May 2022 10:31 #3. jagabo. Member. Dec 2005. I suspect MediaInfo is simply wrong about the size of the AC3 stream. Jul 24, 2018 · Stream specifier ':a' in filtergraph description [0:v][1:v]vstack[video]; [0:a][1:a]amix=inputs=2[audio] matches no streams. It seems like :a does not refer to the audio stream. What is the proper way to specify the audio streams of my input videos as input streams for the amix filter? May 27, 2018 · The other method, is to broadcast the audio via TCP via a point-to-point connection. Using the same input from the previous answer, we just change the output to a network stream: $ ffmpeg -f avfoundation -i ":1" -t 10 -f mpegts "tcp://remote_host_or_IP_:port" Where....-f is the transport format; in this case mpegts (MPEG Transport Stream) With re-streaming in Wowza Streaming Engine™ media server software, you can broadcast an encoded video file as though it were a live stream.To re-stream using FFmpeg, use the -re option when encoding the video file for Wowza Streaming Engine™ media server software. The -re option instructs the encoder to read the source at its native frame rate. . This slows the stream down to simulate ...Capture Webcam or Screen (Live Streaming) You can pass the name of a supported, connected capture device (i.e. the name of a webcam, camera, screen and etc) to the input method to stream a live media over the network from your connected device. capture = ffmpeg_streaming.input('CAMERA NAME OR SCREEN NAME', capture=True) To list the supported ...Oct 29, 2015 · Extract audio from video file. To extract sound from a video file, and save it as Mp3 file, use the following command: $ ffmpeg -i video1.avi -vn -ar 44100 -ac 2 -ab 192 -f mp3 audio3.mp3. Explanation about the options used in above command. Source video : video.avi. Audio bitrate : 192kb/s. output format : mp3. This works brilliantly! But I want to know why it works so I can modify it. I'm finding the ffmpeg syntax confusing. For instance: You have -f u8 but the documentation seems to indicate -sample_fmt u8, yet when tried it doesn't work.; Why does -f u16 not work for 16 bit sound?; How are there 2 -f options on the same line?; Where did you learn about -analyzeduration 0 and -probesize 32?Capture Webcam or Screen (Live Streaming) You can pass the name of a supported, connected capture device (i.e. the name of a webcam, camera, screen and etc) to the input method to stream a live media over the network from your connected device. capture = ffmpeg_streaming.input('CAMERA NAME OR SCREEN NAME', capture=True) To list the supported ...Mar 23, 2017 · Extract Audio From Video File with FFmpeg. We can extract audio stream from the video file and save audio as a separate file in formats like aac , mp3 , vorbis etc. We will provide -vn -ab 128 options. -ab 128 specifies the bitrate. The audio extraction will be done very little time. $ ffmpeg -i Funny.mkv -vn -ab 128 Funny.mp3 Feb 21, 2020 · Return to the Command Prompt window, and run the following command. ffmpeg -list_devices true -f dshow -i dummy. This command will return a list of devices that can record or output audio. This will include speakers, mics, and webcams. In this list, look for the name of the audio device i.e, your speakers that you want to record sound from. Apr 08, 2020 · If this is starting to feel complex, don’t worry, here’s the recommended settings for normalizing audio with loudnorm: $ ffmpeg -i input.mp3 -af loudnorm=I=-16:LRA=11:TP=-1.5 output.mp3. Tip: The above example has been found all over the internet, without a clear identity of who invented these exact variables. Play around with the values to ... Supports resolutions up to 4k and capture from SDI, HDMI, webcam, JACK & Pulse audio, IP stream, X11 screen and Windows... Downloads: 1 This Week Last Update: 2022-01-30. See Project.Please keep in mind that the Docker image doesn't include FFmpeg . if you need to use FFmpeg for an external command or anything else, you need to build a Docker image that contains both rtsp -simple-server and FFmpeg , by following instructions here. Basic usage. Publish a stream. For instance, you can publish a video/audio file with FFmpeg:.If stream mapping is showing both audio tracks are present in the output file, then you should be able to select which track to play in the video player. By default, the best or first supported audio will play. If you want both audio tracks to play (" mux them together so they both play "), then mix the audio into one track. Now, when I try something like this: ffmpeg -f alsa -re -i hw:1,0 -acodec mp2 -ac 2 -f rtp rtp:// [host]: [port] and try playback via either VLC or ffplay, I only get silence and/or clicking sounds. ffplay indicates that a connection is being made, so it isn't a network issue. I have also verified that the input device is in fact the correct ... FFmpeg is a free, open-source command-line utility with tools for live streaming. What is FFmpeg? FFmpeg is a streaming software that is designed for converting, recording, splicing, editing, playing, encoding, muxing/demuxing, and streaming multimedia files.It works with audio, images, and video in basically any codec or format used in the past 20 years.Mute a video (Remove the audio component) Use the -an parameter to disable the audio portion of a video stream. ffmpeg -i video.mp4 -an mute-video.mp4. 6. Extract the audio from video. The -vn switch extracts the audio portion from a video and we are using the -ab switch to save the audio as a 256kbps MP3 audio file.Jul 24, 2018 · Stream specifier ':a' in filtergraph description [0:v][1:v]vstack[video]; [0:a][1:a]amix=inputs=2[audio] matches no streams. It seems like :a does not refer to the audio stream. What is the proper way to specify the audio streams of my input videos as input streams for the amix filter? Jan 15, 2021 · In our case, with a video in WebM format, we'll add an opus audio file like this: ffmpeg -i ./video-track.webm -i ./audio-track.opus -af apad -shortest ./output-video.webm. As mentioned, this option will work only if the video that you are processing doesn't have any audio track, if it does, you will need to replace the audio stream with some ... Apr 24, 2020 · Examples. A simple FFmpeg map example to create an audio only and then a video only copy from the input: Because Stream #0:1 is the audio stream and #0:0 is the video stream. Keeping only the video, English audio and subtitles however encode the video (fast crf 25): Processing what you mapped is done sequentially, -map 0:0 is the video stream ... display FFmpeg help and information about its codecs, formats, protocols, etc. use various filters in filterchains and filtergraphs; encode subtitles directly to the video stream; join various file formats, modify streams and modify audio channels; monetize uploads on video sharing websites; and much more Dec 31, 2020 · Having an USB webcam connected to a Raspberry Pi 4, we’re going to use FFmpeg to securely (SSL and secret-key authentication) stream its video and audio (with CCTV-style timestamps) to a containerized NGINX server over RTMP/RTMPS protocol, and then use this same server to broadcast the stream to multiple users using both Apple HLS and MPEG ... For example, to set the third audio stream as default and remove default from the first audio stream (stream numbering starts at 0): ffmpeg -i input.mkv -map 0 -c copy -disposition:a:0 none -disposition:a:2 default output.mkv ffmpeg -i input1.mkv -i input2.mp3 -map 0 -map 1 -c copy output.mkv This appears to work fine, but when I play the resulting output video, and select the new audio stream, it sounds all squeaky (bit like Mickey Mouse on steroids). For the avoidance of doubt, the original (default) audio stream (and the video) still work fine in the output file.First select the audio stream by using -af or -filter:a, then select the volume filter followed by the number that you want to change the stream by. For example: $ ffmpeg -i input.flac -af volume=1.5 ouput.flac. Here volume=1.5 provides a 150% volume gain, instead of 1.5 use for example 0.5 to half the volume.For each acceptable stream type, ffmpeg will pick one stream, when available, from among all the inputs. It will select that stream based upon the following criteria: for video, it is the stream with the highest resolution, for audio, it is the stream with the most channels, for subtitles, it is the first subtitle stream found but there's a caveat.Apr 08, 2020 · If this is starting to feel complex, don’t worry, here’s the recommended settings for normalizing audio with loudnorm: $ ffmpeg -i input.mp3 -af loudnorm=I=-16:LRA=11:TP=-1.5 output.mp3. Tip: The above example has been found all over the internet, without a clear identity of who invented these exact variables. Play around with the values to ... ffmpeg -i input1.mkv -i input2.mp3 -map 0 -map 1 -c copy output.mkv This appears to work fine, but when I play the resulting output video, and select the new audio stream, it sounds all squeaky (bit like Mickey Mouse on steroids). For the avoidance of doubt, the original (default) audio stream (and the video) still work fine in the output file.For each acceptable stream type, ffmpeg will pick one stream, when available, from among all the inputs. It will select that stream based upon the following criteria: for video, it is the stream with the highest resolution, for audio, it is the stream with the most channels, for subtitles, it is the first subtitle stream found but there's a caveat.Streaming a simple RTP audio stream from FFmpeg. FFmpeg can stream a single stream using the RTP protocol. In order to avoid buffering problems on the other hand, the streaming should be done through the -re option, which means that the stream will be streamed in real-time (i.e. it slows it down to simulate a live streaming source. Now, to split the file, use the following command : 1. ffmpeg -i Midsommar.mkv -map 0:a -acodec copy Midsommar.aac. Extracting Audio From The Video File using ffmpeg. In this command, -i flag signifies input (the video file) and map 0:a picks up the available audio streams. -codec flag copies the picked up audio stream (without re-encoding it) Attempt #2. (ALSA method worked, but audio is quiet!) Found these 2 methods in a blog post titled: Broadcasting to twitch.tv using ffmpeg. First set these variables like so: SIZE="1600×1200″ BITRATE="128k" FRAMERATE="20″ KEY="your key here". Then use this for ALSA:Stream FFMPEG based Audio and Video using WebRtc. It is the most fastest P2P based streamer which gets Audio and Video from FFMPEG and then stream it to **WebRtc Endpoints** (Android, iOS, Web) and **Media Servers** like (Ant-Media). Sep 23, 2021 · The next command listed processes audio files other than mp3. It functions the same as the previous command but writes standard metadata (if present) from the first audio file to the merged file: ffmpeg -f concat -i confiles.txt -i metadatafile1.txt -map_metadata 1 -c copy filename1_merged.ext. ffmpeg – calls ffmpeg. The first filter takes audio of input #0 ( 0:a ), reduces the volume to the half and stores it into a temporary stream called music. The second filter, takes the music and audio1.mp3, mixing them together. Mix two audio inputs into a video with delay In the examples above, the voice starts at the very beginning.Introduction. FFmpeg is a multiplatform, open-source library to record, convert and stream video and audio files, it supports nearly every digital format and codec known, it's available on most ...Jul 24, 2018 · Stream specifier ':a' in filtergraph description [0:v][1:v]vstack[video]; [0:a][1:a]amix=inputs=2[audio] matches no streams. It seems like :a does not refer to the audio stream. What is the proper way to specify the audio streams of my input videos as input streams for the amix filter? Nov 04, 2019 · This article explains how to use FFmpeg to extract the audio stream from a video, either without re-encoding (keeping the original format), or converting the resulting audio file to CBR (constant bitrate) or VBR (variable bitrate) MP3 or Ogg Vorbis. To use the FFmpeg examples / commands below, you'll need to have FFmpeg installed on your system. Supports resolutions up to 4k and capture from SDI, HDMI, webcam, JACK & Pulse audio, IP stream, X11 screen and Windows... Downloads: 1 This Week Last Update: 2022-01-30. See Project.Streaming a simple RTP audio stream from FFmpeg FFmpeg can stream a single stream using the RTP protocol. In order to avoid buffering problems on the other hand, the streaming should be done through the -re option, which means that the stream will be streamed in real-time (i.e. it slows it down to simulate a live streaming source .1. Choose audio You can use pavucontrol to choose which audio source ffmpeg will record, such as "desktop" or microphone. This is explained in Capturing ONLY desktop audio with ffmpeg. 2. Encode Now use ffmpeg to stream to YouTube:FFmpeg is a hyper fast real time audio/video encoder, a streaming server and a generic audio and video file converter. It is a command line tool that is composed of a collection of free software / open source libraries. It includes libavcodec, an audio/video codec library used by several other projects, and libavformat, an audio/video container ... FFmpeg is a free, open-source command-line utility with tools for live streaming. What is FFmpeg? FFmpeg is a streaming software that is designed for converting, recording, splicing, editing, playing, encoding, muxing/demuxing, and streaming multimedia files.It works with audio, images, and video in basically any codec or format used in the past 20 years.The same can be done to change the video as well as the audio stream: ffmpeg-i input.mp4 -c:v vp9 -c:a libvorbis output.mkv. This will make a Matroska container with a VP9 video stream and a Vorbis audio stream, essentially the same as the WebM we made earlier. The command ffmpeg -codecs will print every codec FFmpeg knows about. The output of ...Now, to split the file, use the following command : 1. ffmpeg -i Midsommar.mkv -map 0:a -acodec copy Midsommar.aac. Extracting Audio From The Video File using ffmpeg. In this command, -i flag signifies input (the video file) and map 0:a picks up the available audio streams. -codec flag copies the picked up audio stream (without re-encoding it) Jul 24, 2018 · Stream specifier ':a' in filtergraph description [0:v][1:v]vstack[video]; [0:a][1:a]amix=inputs=2[audio] matches no streams. It seems like :a does not refer to the audio stream. What is the proper way to specify the audio streams of my input videos as input streams for the amix filter? Streams means video, audio, subtitles, attachments and data within the file; this is rather complex on movie files where there could be multiple audio streams for different languages and the same for subtitles. Video usually has different streams for quality when it is a live stream.FFmpeg is a Powerful Media Tool used for Muxing, Demuxing, Transcoding, Encoding, Streaming and Filtering. This tool is accessed by typing different commands in Command Prompt. This tool is having FFmpeg player as well as a ffmpeg stream analyzer. To stream a content for different players using FFmpeg Tool is known as FFmpeg Streaming. 1. Choose audio You can use pavucontrol to choose which audio source ffmpeg will record, such as "desktop" or microphone. This is explained in Capturing ONLY desktop audio with ffmpeg. 2. Encode Now use ffmpeg to stream to YouTube:Jul 21, 2022 · For each acceptable stream type, ffmpeg will pick one stream, when available, from among all the inputs. It will select that stream based upon the following criteria: for video, it is the stream with the highest resolution, for audio, it is the stream with the most channels, for subtitles, it is the first subtitle stream found but there’s a caveat. Apr 25, 2015 · Use the "atempo" filter: ffmpeg -i input.mp4 -filter:a "atempo=0.5" -vn output.aac. The above example will extract the audio stream from the input video, slow it down by 2 and reencode it into an AAC audio file. The parameter for atempo must be between 0.5 and 2.0. If you want to slow it down even more, you can use the atempo filter more than once. Convert Avi To Mp4 with FFmpeg. We can convert avi to mp4 with the following command. $ ffmpeg -i jellyfish.avi jellyfish.mp4 Extract Audio From Video File with FFmpeg. We can extract audio stream from the video file and save audio as a separate file in formats like aac , mp3 , vorbis etc.We will provide -vn -ab 128 options.-ab 128 specifies the bitrate.Now, when I try something like this: ffmpeg -f alsa -re -i hw:1,0 -acodec mp2 -ac 2 -f rtp rtp:// [host]: [port] and try playback via either VLC or ffplay, I only get silence and/or clicking sounds. ffplay indicates that a connection is being made, so it isn't a network issue. I have also verified that the input device is in fact the correct ... 1 I really need some help with using FFMPEG to stream video and audio together through RTMP .I've overclocked my raspi 2 and tried as much as I could so far. The video streams fine but I can't hear any audio. I just hear random click sounds.Please help :Jun 23, 2016 · 3. Channels are conjoint tracks within a single stream, so a stereo audio WAV has one stream which contains two channels. If this is what you have, use. ffmpeg -i video -i audio -map 0:v -map 1:a output. If they are distinct streams, then the above command will still map all the streams, but for explicit specification, use. FFmpeg is a command-line tool that converts audio or video formats. It can also capture and encode in real-time from various hardware and software sources such as a TV capture card. Basically, it is a wrapper that converts RTSP to HLS. (HLS stands for HTTP Live Streaming.If this is starting to feel complex, don't worry, here's the recommended settings for normalizing audio with loudnorm: $ ffmpeg -i input.mp3 -af loudnorm=I=-16:LRA=11:TP=-1.5 output.mp3. Tip: The above example has been found all over the internet, without a clear identity of who invented these exact variables. Play around with the values to ...FITS demuxer and decoder; FITS muxer and encoder; add --disable-autodetect build switch; drop deprecated qtkit input device (use. "-i" specifies the input file which can be a stream url or any media file. "-map p:5" tells ffmpeg to select stream with program id 5, which in our case is the 720p variant (To know the different program id of a ...Streams means video, audio, subtitles, attachments and data within the file; this is rather complex on movie files where there could be multiple audio streams for different languages and the same for subtitles. Video usually has different streams for quality when it is a live stream.If this is starting to feel complex, don't worry, here's the recommended settings for normalizing audio with loudnorm: $ ffmpeg -i input.mp3 -af loudnorm=I=-16:LRA=11:TP=-1.5 output.mp3. Tip: The above example has been found all over the internet, without a clear identity of who invented these exact variables. Play around with the values to ...I hope you can help me to be able to live stream via FFmpeg over RTMP with audio. Thanks! Answer. Assuming you actually need to use OpenCV for the video, you have to add the audio directly to FFmpeg as Gyan commented, because OpenCV does not support audio.-re argument is probably required for live streaming.FFmpeg is a hyper fast real time audio/video encoder, a streaming server and a generic audio and video file converter. It is a command line tool that is composed of a collection of free software / open source libraries. It includes libavcodec, an audio/video codec library used by several other projects, and libavformat, an audio/video container ... After the installed FFMPEG version and configuration information the Input section details information like metadata, duration, encoding and more. In the above example it can be noted that input.mp3 is indeed an mp3 with a Lavc/Lavf encoder which I guess is the standard encoding for Bandcamp downloads. Love FFmpeg?Now, to split the file, use the following command : 1. ffmpeg -i Midsommar.mkv -map 0:a -acodec copy Midsommar.aac. Extracting Audio From The Video File using ffmpeg. In this command, -i flag signifies input (the video file) and map 0:a picks up the available audio streams. -codec flag copies the picked up audio stream (without re-encoding it) Introduction. FFmpeg is a multiplatform, open-source library to record, convert and stream video and audio files, it supports nearly every digital format and codec known, it's available on most ...ffmpeg Save incoming RTP audio only stream to file 0 ReSample RTP Audio data over Socket as PCM data using FFMPEG 2 Using FFMPEG To Fill in Gaps of a Raw Audio UDP Stream Hot Network Questions If a creature's best food source was 4,000 feet above it, and only rarely fell from that height, how would it evolve to eat that food? Super Mario 64 RNGMar 10, 2011 · For extracting purposes, we’re most interested that the file has AAC audio. Knowing this, all we need to do is type the following command: Here’s what the different parts of the previous command do: ffmpeg – launches FFmpeg. -i Bohemian_Rhapsody.flv – provides FFmpeg with the name of the input file. -vn – tells FFmpeg to ignore the ... Jan 14, 2020 · Mute a video (Remove the audio component) Use the -an parameter to disable the audio portion of a video stream. ffmpeg -i video.mp4 -an mute-video.mp4. 6. Extract the audio from video. The -vn switch extracts the audio portion from a video and we are using the -ab switch to save the audio as a 256kbps MP3 audio file. Attempt #2. (ALSA method worked, but audio is quiet!) Found these 2 methods in a blog post titled: Broadcasting to twitch.tv using ffmpeg. First set these variables like so: SIZE="1600×1200″ BITRATE="128k" FRAMERATE="20″ KEY="your key here". Then use this for ALSA:Streams means video, audio, subtitles, attachments and data within the file; this is rather complex on movie files where there could be multiple audio streams for different languages and the same for subtitles. Video usually has different streams for quality when it is a live stream.FFmpeg is a free, open-source command-line utility with tools for live streaming. What is FFmpeg? FFmpeg is a streaming software that is designed for converting, recording, splicing, editing, playing, encoding, muxing/demuxing, and streaming multimedia files.It works with audio, images, and video in basically any codec or format used in the past 20 years.FFmpeg is a free, open-source command-line utility with tools for live streaming. What is FFmpeg? FFmpeg is a streaming software that is designed for converting, recording, splicing, editing, playing, encoding, muxing/demuxing, and streaming multimedia files.It works with audio, images, and video in basically any codec or format used in the past 20 years.Nov 04, 2019 · This article explains how to use FFmpeg to extract the audio stream from a video, either without re-encoding (keeping the original format), or converting the resulting audio file to CBR (constant bitrate) or VBR (variable bitrate) MP3 or Ogg Vorbis. To use the FFmpeg examples / commands below, you'll need to have FFmpeg installed on your system. Clever FFmpeg GUI is a small, but smart GUI for FFmpeg. It processes Audio and Video streams separately. These can be muxed after processing. It's for Windows Systems, portable, x86 and x64. Change aspect ratio, Change Audio and Subtitles stream language, Change profile level without recoding (for x264 and hevc).Nov 02, 2020 · For removing a specific audio track using FFmpeg, you can always use the map command. The general syntax of the map command is -map input_file_index:stream_type_specifier:stream_index. So, you could select the 2nd audio track of the video by saying -map 0:a:1 because the numbering starts at 0. In our example, if your file has 1 video track and ... Clever FFmpeg GUI is a small, but smart GUI for FFmpeg. It processes Audio and Video streams separately. These can be muxed after processing. It's for Windows Systems, portable, x86 and x64. Change aspect ratio, Change Audio and Subtitles stream language, Change profile level without recoding (for x264 and hevc).May 27, 2021 · Extract audio stream from video without re-encoding# ffmpeg -i input-video.avi -vn -acodec copy output-audio.aac-vn is no video.-acodec copy use the same audio stream that’s already in there. Rotate a video with FFmpeg# # Rotate 90 clockwise: ffmpeg -i in.mov -vf "transpose=1" out.mov. For the transpose parameter you can pass: A basic FFmpeg command uses the format. ffmpeg [input-options] -i [input-file] [output-options] [output-stream-URI]Where: [input-options] apply to the input, or source, file.For example, you can use -s to specify the size of the file. [input-file] is the video file or the stream URL.[output-options] apply to the output, or destination.For example, the -f option specifies the output container ...FFmpeg is a complete, cross-platform solution to record, convert and stream audio and video. Getting video Information using ffmpeg. The ffmpeg command used to get information of a video is: Ffmpeg -i <inputFileName>. I have a video named "ffmpeg_macdonald.3GP" on which I have applied my ffmpeg command. I have uploaded this video in my S3 ...Now, to split the file, use the following command : 1. ffmpeg -i Midsommar.mkv -map 0:a -acodec copy Midsommar.aac. Extracting Audio From The Video File using ffmpeg. In this command, -i flag signifies input (the video file) and map 0:a picks up the available audio streams. -codec flag copies the picked up audio stream (without re-encoding it) Given an existing capture (by VLC) of a TS (AAC, Stereo) audio stream (~2 mins) from a professional online radio station, I tried using ffmpeg (5.0.1) to change only the stream's service name (which was initially blank). The code I used was: ffmpeg -hide_banner -i vlc-output.ts -metadata title='aTitle' tmp.tsApr 24, 2020 · Examples. A simple FFmpeg map example to create an audio only and then a video only copy from the input: Because Stream #0:1 is the audio stream and #0:0 is the video stream. Keeping only the video, English audio and subtitles however encode the video (fast crf 25): Processing what you mapped is done sequentially, -map 0:0 is the video stream ... A basic FFmpeg command uses the format. ffmpeg [input-options] -i [input-file] [output-options] [output-stream-URI]Where: [input-options] apply to the input, or source, file.For example, you can use -s to specify the size of the file. [input-file] is the video file or the stream URL.[output-options] apply to the output, or destination.For example, the -f option specifies the output container ...From the perspective of FFMPEG, it is converting a video file using the MPEG Transport Stream container into an MPEG-4 container. The -vcodec flag ensures that the libx264 or H264 codec is being used and the flag -codec:a copy is copying the original source audio stream into the newly converted file. Video Resolution and QualityAmong variety of features, FFmpeg can capture video and audio from your computer's camera and stream them over network to some other remote machine. Use cases It becomes more and more common that there is at least one desktop computer or lap top at your home with sole purpose to collect dust.After the installed FFMPEG version and configuration information the Input section details information like metadata, duration, encoding and more. In the above example it can be noted that input.mp3 is indeed an mp3 with a Lavc/Lavf encoder which I guess is the standard encoding for Bandcamp downloads. Love FFmpeg?May 27, 2018 · The other method, is to broadcast the audio via TCP via a point-to-point connection. Using the same input from the previous answer, we just change the output to a network stream: $ ffmpeg -f avfoundation -i ":1" -t 10 -f mpegts "tcp://remote_host_or_IP_:port" Where....-f is the transport format; in this case mpegts (MPEG Transport Stream) Now that you know the original audio format, extract the audio from the video without re-encoding it using the below command: ffmpeg -i myvideo.mp4 -vn -acodec copy audio.ogg. Replace myvideo.mp4 with the video filename/path, and audio.ogg with the name you want to use for the audio output filename, and the extension.This parameter enforces a constant bitrate for the audio stream. 128k is also the default value for AAC if you don't specify one. -ac 2 specifies the number of audio channels. Here we use stereo (2 channels). Output We'd like to have HLS as the output format. -f hls -hls_time 4 -hls_playlist_type event stream.m3u8In this scenario I use separate host for the tools. Flowplayer is installed on a server running Apache, crtmp server is on a separate server and ffmpeg is installed on the streaming desktop. 2 Tools used. ffmpeg: This is the audio and video encoder. I will use this to capture the desktop with x11grab, audio from pulse and webcam from video4linux2. In this scenario I use separate host for the tools. Flowplayer is installed on a server running Apache, crtmp server is on a separate server and ffmpeg is installed on the streaming desktop. 2 Tools used. ffmpeg: This is the audio and video encoder. I will use this to capture the desktop with x11grab, audio from pulse and webcam from video4linux2. Feb 21, 2020 · Return to the Command Prompt window, and run the following command. ffmpeg -list_devices true -f dshow -i dummy. This command will return a list of devices that can record or output audio. This will include speakers, mics, and webcams. In this list, look for the name of the audio device i.e, your speakers that you want to record sound from. ffmpeg.wasm is a pure WebAssembly / JavaScript port of FFmpeg. It enables video & audio record, convert and stream right inside browsers. Sep 13, 2015 · Getting FFMPEG to stream video+audio through RTMP. 4. Can someone help me with this: The video streams fine but I can't hear any audio. I just hear random click sounds. Please help: ffmpeg -f video4linux2 -channel 1 -i /dev/video0 -f alsa -i plughw:2,0 -r 25 -vcodec libx264 -strict experimental -acodec aac -b:a 20k -b:v 200k -aspect 4:3 -s ... Core :: Audio/Video: Playback. For problems related to the HTML 5 media elements (<video> and <audio>) -- including WebM, MP4, MSE and EME issues. ... (patented) h264 decoder which is used by default. When ffmpeg is build with openh264 decoder it means somebody does that on purpose and wants that as it needs extra effort to do so ( ffmpeg does. audioread.Capture Webcam or Screen (Live Streaming) You can pass the name of a supported, connected capture device (i.e. the name of a webcam, camera, screen and etc) to the input method to stream a live media over the network from your connected device. capture = ffmpeg_streaming.input('CAMERA NAME OR SCREEN NAME', capture=True) To list the supported ...Attempt #2. (ALSA method worked, but audio is quiet!) Found these 2 methods in a blog post titled: Broadcasting to twitch.tv using ffmpeg. First set these variables like so: SIZE="1600×1200″ BITRATE="128k" FRAMERATE="20″ KEY="your key here". Then use this for ALSA:FFmpeg FFmpeg A complete, cross-platform solution to record, convert and stream audio and video. Download Converting video and audio has never been so easy. $ ffmpeg -i input.mp4 output.avi Discover more News January 17th, 2022, FFmpeg 5.0 "Lorentz" FFmpeg 5.0 "Lorentz", a new major release, is now available!Here are some of the changes you need to make. remove -hls_playlist_type vod add -hls_list_size and set it to a number that denotes the number of segments you want in the playlists of the individual variations. FFmpeg maintains the same audio channels and samples as the source file and applies a bitrate of 128Kbps.Jul 05, 2021 · FFmpeg is a command-line tool for converting audio and video formats, and it can also capture and encode in real-time from hardware and software sources. FFmpeg streaming, as you might now guess, is incorporating FFmpeg into your live streaming workflow. It’s a whole suite of tools with significant capabilities for live streaming, it can work ... 1. Choose audio You can use pavucontrol to choose which audio source ffmpeg will record, such as "desktop" or microphone. This is explained in Capturing ONLY desktop audio with ffmpeg. 2. Encode Now use ffmpeg to stream to YouTube:When audio is ahead of the video, the -async option, when provided as -async 1, automatically corrects the start of the audio stream. Follow this syntax to sync the audio with the video. ffmpeg -async 1 -i input.mpg <encoding options> 3. Manually Correcting Time-Shift Let's discuss each of the steps in detail. Step 1 : Encoding The encoder encodes the audio/video using any one of the supported codecs and transfers the data to the RTMP-SERVER using the RTMP protocol. We would be using FFmpeg to encode and send data to the server. Following is the FFmpeg command to encode the video and transfer it to the server.FFmpeg is a hyper fast real time audio/video encoder, a streaming server and a generic audio and video file converter. It is a command line tool that is composed of a collection of free software / open source libraries. It includes libavcodec, an audio/video codec library used by several other projects, and libavformat, an audio/video container ... The same can be done to change the video as well as the audio stream: ffmpeg-i input.mp4 -c:v vp9 -c:a libvorbis output.mkv. This will make a Matroska container with a VP9 video stream and a Vorbis audio stream, essentially the same as the WebM we made earlier. The command ffmpeg -codecs will print every codec FFmpeg knows about. The output of ...FITS demuxer and decoder; FITS muxer and encoder; add --disable-autodetect build switch; drop deprecated qtkit input device (use. "-i" specifies the input file which can be a stream url or any media file. "-map p:5" tells ffmpeg to select stream with program id 5, which in our case is the 720p variant (To know the different program id of a ...Return to the Command Prompt window, and run the following command. ffmpeg -list_devices true -f dshow -i dummy This command will return a list of devices that can record or output audio. This will include speakers, mics, and webcams. In this list, look for the name of the audio device i.e, your speakers that you want to record sound from.FFmpeg FFmpeg A complete, cross-platform solution to record, convert and stream audio and video. Download Converting video and audio has never been so easy. $ ffmpeg -i input.mp4 output.avi Discover more News January 17th, 2022, FFmpeg 5.0 "Lorentz" FFmpeg 5.0 "Lorentz", a new major release, is now available!FFmpeg is a Powerful Media Tool used for Muxing, Demuxing, Transcoding, Encoding, Streaming and Filtering. This tool is accessed by typing different commands in Command Prompt. This tool is having FFmpeg player as well as a ffmpeg stream analyzer. To stream a content for different players using FFmpeg Tool is known as FFmpeg Streaming. First select the audio stream by using -af or -filter:a, then select the volume filter followed by the number that you want to change the stream by. For example: $ ffmpeg -i input.flac -af volume=1.5 ouput.flac. Here volume=1.5 provides a 150% volume gain, instead of 1.5 use for example 0.5 to half the volume.E.g. if video is 1 minute, but audio is 1 hour. Make video loop throughout for 1 hour of the audio track. I use this solution to loop image through the lenght of the audio. ffmpeg -y -loop 1 -r 6 -i image.jpg -i audio.mp3 -shortest -c:v libx264 -preset ultrafast -tune stillimage -pix_fmt yuv420p -c:a copy output.mp4.The original descriptors are identified by " (AC-3 / 0x332D4341)" information. When using the option "-mpegts_flags +system_b", ffmpeg outputs the TS file with the following audio characteristics: Stream #0:1 [0x101] (por): Audio: ac3 ( [6] [0] [0] [0] / 0x0006), 48000Hz, stereo, fltp, 448 kb/s. This last option does seem to change stream type ... FFmpeg FFmpeg A complete, cross-platform solution to record, convert and stream audio and video. Download Converting video and audio has never been so easy. $ ffmpeg -i input.mp4 output.avi Discover more News January 17th, 2022, FFmpeg 5.0 "Lorentz" FFmpeg 5.0 "Lorentz", a new major release, is now available!May 27, 2018 · The other method, is to broadcast the audio via TCP via a point-to-point connection. Using the same input from the previous answer, we just change the output to a network stream: $ ffmpeg -f avfoundation -i ":1" -t 10 -f mpegts "tcp://remote_host_or_IP_:port" Where....-f is the transport format; in this case mpegts (MPEG Transport Stream) Attempt #2. (ALSA method worked, but audio is quiet!) Found these 2 methods in a blog post titled: Broadcasting to twitch.tv using ffmpeg. First set these variables like so: SIZE=”1600×1200″ BITRATE=”128k” FRAMERATE=”20″ KEY=”your key here”. Then use this for ALSA: In this scenario I use separate host for the tools. Flowplayer is installed on a server running Apache, crtmp server is on a separate server and ffmpeg is installed on the streaming desktop. 2 Tools used. ffmpeg: This is the audio and video encoder. I will use this to capture the desktop with x11grab, audio from pulse and webcam from video4linux2. FFmpeg-Perl represents multimedia stream group information in a FFmpeg::StreamGroup object, which is a composite of FFmpeg::Stream objects. FFmpeg::Stream objects don't do much. They just keep track of the media stream's ID within the multimedia stream group, and hold an instance to a FFmpeg::Codec object if the codec of the stream was deducible.Mar 22, 2018 · FFMPEG HLS STREAM MULTIPLE AUDIO/SUBTITLES. ffmpeg 4. hls 2. streaming 7. multiple audio subtitles 1. encode 5. encode video ... Jul 21, 2022 · For each acceptable stream type, ffmpeg will pick one stream, when available, from among all the inputs. It will select that stream based upon the following criteria: for video, it is the stream with the highest resolution, for audio, it is the stream with the most channels, for subtitles, it is the first subtitle stream found but there’s a caveat. Nov 02, 2020 · For removing a specific audio track using FFmpeg, you can always use the map command. The general syntax of the map command is -map input_file_index:stream_type_specifier:stream_index. So, you could select the 2nd audio track of the video by saying -map 0:a:1 because the numbering starts at 0. In our example, if your file has 1 video track and ... May 14, 2022 · The size of the encoded Ac3 IS 722Mb. (real info, not copied). You can test this encoding with 320k instead of 640k. This will give you a smaller output. Quote. 14th May 2022 10:31 #3. jagabo. Member. Dec 2005. I suspect MediaInfo is simply wrong about the size of the AC3 stream. 1 I really need some help with using FFMPEG to stream video and audio together through RTMP .I've overclocked my raspi 2 and tried as much as I could so far. The video streams fine but I can't hear any audio. I just hear random click sounds.Please help :I hope you can help me to be able to live stream via FFmpeg over RTMP with audio. Thanks! Answer. Assuming you actually need to use OpenCV for the video, you have to add the audio directly to FFmpeg as Gyan commented, because OpenCV does not support audio.-re argument is probably required for live streaming.FFmpeg is a complete, cross-platform solution to record, convert and stream audio and video. Getting video Information using ffmpeg. The ffmpeg command used to get information of a video is: Ffmpeg -i <inputFileName>. I have a video named "ffmpeg_macdonald.3GP" on which I have applied my ffmpeg command. I have uploaded this video in my S3 ...If this is starting to feel complex, don't worry, here's the recommended settings for normalizing audio with loudnorm: $ ffmpeg -i input.mp3 -af loudnorm=I=-16:LRA=11:TP=-1.5 output.mp3. Tip: The above example has been found all over the internet, without a clear identity of who invented these exact variables. Play around with the values to ...Mar 22, 2018 · FFMPEG HLS STREAM MULTIPLE AUDIO/SUBTITLES. ffmpeg 4. hls 2. streaming 7. multiple audio subtitles 1. encode 5. encode video ... Streaming a simple RTP audio stream from FFmpeg. FFmpeg can stream a single stream using the RTP protocol. In order to avoid buffering problems on the other hand, the streaming should be done through the -re option, which means that the stream will be streamed in real-time (i.e. it slows it down to simulate a live streaming source. Jul 05, 2021 · FFmpeg is a command-line tool for converting audio and video formats, and it can also capture and encode in real-time from hardware and software sources. FFmpeg streaming, as you might now guess, is incorporating FFmpeg into your live streaming workflow. It’s a whole suite of tools with significant capabilities for live streaming, it can work ... Node bindings to ffmpeg command, exposing stream based API. Latest version: 0.7.0, last published: 2 years ago. Start using ffmpeg-stream in your project by running `npm i ffmpeg-stream`. There are 10 other projects in the npm registry using ffmpeg-stream.This works brilliantly! But I want to know why it works so I can modify it. I'm finding the ffmpeg syntax confusing. For instance: You have -f u8 but the documentation seems to indicate -sample_fmt u8, yet when tried it doesn't work.; Why does -f u16 not work for 16 bit sound?; How are there 2 -f options on the same line?; Where did you learn about -analyzeduration 0 and -probesize 32?Jan 23, 2013 · I have a problem using ffmpeg: when i trying to record video+audio from my webcam in result i got only video stream, wthout audio at all. I have tried different codecs and nothing.. Maybe, someone can give me advice? ffmpeg -f dshow -i video="Logitech HD Webcam C270" -r 25 -s 800x600 -acodec libmp3lame -vcodec mpeg4 -b 3000k -f avi D:\1.avi FFmpeg Formats Documentation Table of Contents 1 Description 2 Format Options 2.1 Format stream specifiers 3 Demuxers 3.1 aa 3.2 aac 3.3 apng 3.4 asf 3.5 concat 3.5.1 Syntax 3.5.2 Options 3.5.3 Examples 3.6 dash 3.7 imf 3.8 flv, live_flv, kux 3.9 gif 3.10 hls 3.11 image2 3.11.1 Examples 3.12 libgme 3.13 libmodplug 3.14 libopenmpt 3.15 mov/mp4/3gpFFmpeg-Perl represents multimedia stream group information in a FFmpeg::StreamGroup object, which is a composite of FFmpeg::Stream objects. FFmpeg::Stream objects don't do much. They just keep track of the media stream's ID within the multimedia stream group, and hold an instance to a FFmpeg::Codec object if the codec of the stream was deducible. A stream specifier is a string generally appended to the option name and separated from it by a colon. E.g. -codec:a:1 ac3 contains the a:1 stream specifier, which matches the second audio stream. Therefore, it would select the ac3 codec for the second audio stream.Nov 02, 2020 · For removing a specific audio track using FFmpeg, you can always use the map command. The general syntax of the map command is -map input_file_index:stream_type_specifier:stream_index. So, you could select the 2nd audio track of the video by saying -map 0:a:1 because the numbering starts at 0. In our example, if your file has 1 video track and ... May 21, 2019 · 8. Removing Audio Stream From A Video File. If you don't want audio from a video file, use -an flag. $ ffmpeg -i input.mp4 -an output.mp4. Here, 'an' indicates no audio recording. In other words, this option will mute the audio. The above command will undo all audio related flags. 9. Removing Video Stream From A Media File The original descriptors are identified by " (AC-3 / 0x332D4341)" information. When using the option "-mpegts_flags +system_b", ffmpeg outputs the TS file with the following audio characteristics: Stream #0:1 [0x101] (por): Audio: ac3 ( [6] [0] [0] [0] / 0x0006), 48000Hz, stereo, fltp, 448 kb/s. This last option does seem to change stream type ...Sep 23, 2021 · The next command listed processes audio files other than mp3. It functions the same as the previous command but writes standard metadata (if present) from the first audio file to the merged file: ffmpeg -f concat -i confiles.txt -i metadatafile1.txt -map_metadata 1 -c copy filename1_merged.ext. ffmpeg – calls ffmpeg. Sep 23, 2021 · The next command listed processes audio files other than mp3. It functions the same as the previous command but writes standard metadata (if present) from the first audio file to the merged file: ffmpeg -f concat -i confiles.txt -i metadatafile1.txt -map_metadata 1 -c copy filename1_merged.ext. ffmpeg – calls ffmpeg. Nov 02, 2020 · For removing a specific audio track using FFmpeg, you can always use the map command. The general syntax of the map command is -map input_file_index:stream_type_specifier:stream_index. So, you could select the 2nd audio track of the video by saying -map 0:a:1 because the numbering starts at 0. In our example, if your file has 1 video track and ... In most cases, ffmpeg automatically detects all needed options to read a video or audio stream or file. But it is possible in rare cases that you will need to set options to help ffmpeg out. First, check that your stream is playable by ffmpeg outside of Home Assistant with (use option -an or -vn to disable video or audio stream):Oct 29, 2015 · Extract audio from video file. To extract sound from a video file, and save it as Mp3 file, use the following command: $ ffmpeg -i video1.avi -vn -ar 44100 -ac 2 -ab 192 -f mp3 audio3.mp3. Explanation about the options used in above command. Source video : video.avi. Audio bitrate : 192kb/s. output format : mp3. [email protected]: 4.4.2: Play, record, convert, and stream audio and video: [email protected]: 2.8.20: Play, record, convert, and stream audio and video Attempt #2. (ALSA method worked, but audio is quiet!) Found these 2 methods in a blog post titled: Broadcasting to twitch.tv using ffmpeg. First set these variables like so: SIZE=”1600×1200″ BITRATE=”128k” FRAMERATE=”20″ KEY=”your key here”. Then use this for ALSA: Streaming a simple RTP audio stream from FFmpeg. FFmpeg can stream a single stream using the RTP protocol. In order to avoid buffering problems on the other hand, the streaming should be done through the -re option, which means that the stream will be streamed in real-time (i.e. it slows it down to simulate a live streaming source. I hope you can help me to be able to live stream via FFmpeg over RTMP with audio. Thanks! Answer. Assuming you actually need to use OpenCV for the video, you have to add the audio directly to FFmpeg as Gyan commented, because OpenCV does not support audio.-re argument is probably required for live streaming.Oct 16, 2019 · I tried the following command string which worked the first time. ffmpeg -i video.mp4 -i audio.mp3 -c:v copy -c:a aac muxed.mp4. To explain, after designating the two input files, the script copies the existing video file as-is (c:v copy), converts the MP3 audio to aac (c:a aac), and muxes the two into muxed.mp4. Then I tried this: In this scenario I use separate host for the tools. Flowplayer is installed on a server running Apache, crtmp server is on a separate server and ffmpeg is installed on the streaming desktop. 2 Tools used. ffmpeg: This is the audio and video encoder. I will use this to capture the desktop with x11grab, audio from pulse and webcam from video4linux2. Another very useful and common operation is extracting audio from video using FFmpeg. You can do this with and without re-encoding the audio. In the first case, let's take a look at extracting the audio out of a media file and storing it without re-encoding it. Extracting the audio involves discarding the video, right?May 27, 2021 · Extract audio stream from video without re-encoding# ffmpeg -i input-video.avi -vn -acodec copy output-audio.aac-vn is no video.-acodec copy use the same audio stream that’s already in there. Rotate a video with FFmpeg# # Rotate 90 clockwise: ffmpeg -i in.mov -vf "transpose=1" out.mov. For the transpose parameter you can pass: Stream FFMPEG based Audio and Video using WebRtc. It is the most fastest P2P based streamer which gets Audio and Video from FFMPEG and then stream it to **WebRtc Endpoints** (Android, iOS, Web) and **Media Servers** like (Ant-Media). FFmpeg is a command-line tool that converts audio or video formats. It can also capture and encode in real-time from various hardware and software sources such as a TV capture card. Basically, it is a wrapper that converts RTSP to HLS. (HLS stands for HTTP Live Streaming.May 14, 2022 · The size of the encoded Ac3 IS 722Mb. (real info, not copied). You can test this encoding with 320k instead of 640k. This will give you a smaller output. Quote. 14th May 2022 10:31 #3. jagabo. Member. Dec 2005. I suspect MediaInfo is simply wrong about the size of the AC3 stream. Apr 24, 2020 · Examples. A simple FFmpeg map example to create an audio only and then a video only copy from the input: Because Stream #0:1 is the audio stream and #0:0 is the video stream. Keeping only the video, English audio and subtitles however encode the video (fast crf 25): Processing what you mapped is done sequentially, -map 0:0 is the video stream ... Aug 02, 2021 · Now that you know the original audio format, extract the audio from the video without re-encoding it using the below command: ffmpeg -i myvideo.mp4 -vn -acodec copy audio.ogg. Replace myvideo.mp4 with the video filename/path, and audio.ogg with the name you want to use for the audio output filename, and the extension. Introduction. FFmpeg is a multiplatform, open-source library to record, convert and stream video and audio files, it supports nearly every digital format and codec known, it's available on most ...Streams means video, audio, subtitles, attachments and data within the file; this is rather complex on movie files where there could be multiple audio streams for different languages and the same for subtitles. Video usually has different streams for quality when it is a live stream.With re-streaming in Wowza Streaming Engine™ media server software, you can broadcast an encoded video file as though it were a live stream.To re-stream using FFmpeg, use the -re option when encoding the video file for Wowza Streaming Engine™ media server software. The -re option instructs the encoder to read the source at its native frame rate. . This slows the stream down to simulate ...A stream specifier is a string generally appended to the option name and separated from it by a colon. E.g. -codec:a:1 ac3 contains the a:1 stream specifier, which matches the second audio stream. Therefore, it would select the ac3 codec for the second audio stream.This is the audio equivelent to "hello world", and it's the first step in getting ready to stream audio. ffmpeg. ffmpeg can work very well for simple capture/encode/streaming scenarios ... depending on the linux distribution. To explain this, we have to talk about the two flavors of ffmpeg: the "mainline" version, and the one which comes with ...Sep 23, 2021 · The next command listed processes audio files other than mp3. It functions the same as the previous command but writes standard metadata (if present) from the first audio file to the merged file: ffmpeg -f concat -i confiles.txt -i metadatafile1.txt -map_metadata 1 -c copy filename1_merged.ext. ffmpeg – calls ffmpeg. Jul 05, 2021 · FFmpeg is a command-line tool for converting audio and video formats, and it can also capture and encode in real-time from hardware and software sources. FFmpeg streaming, as you might now guess, is incorporating FFmpeg into your live streaming workflow. It’s a whole suite of tools with significant capabilities for live streaming, it can work ... For example, to set the third audio stream as default and remove default from the first audio stream (stream numbering starts at 0): ffmpeg -i input.mkv -map 0 -c copy -disposition:a:0 none -disposition:a:2 default output.mkv The same can be done to change the video as well as the audio stream: ffmpeg-i input.mp4 -c:v vp9 -c:a libvorbis output.mkv. This will make a Matroska container with a VP9 video stream and a Vorbis audio stream, essentially the same as the WebM we made earlier. The command ffmpeg -codecs will print every codec FFmpeg knows about. The output of ...May 27, 2018 · The other method, is to broadcast the audio via TCP via a point-to-point connection. Using the same input from the previous answer, we just change the output to a network stream: $ ffmpeg -f avfoundation -i ":1" -t 10 -f mpegts "tcp://remote_host_or_IP_:port" Where....-f is the transport format; in this case mpegts (MPEG Transport Stream) In most cases, ffmpeg automatically detects all needed options to read a video or audio stream or file. But it is possible in rare cases that you will need to set options to help ffmpeg out. First, check that your stream is playable by ffmpeg outside of Home Assistant with (use option -an or -vn to disable video or audio stream): Sep 13, 2015 · Getting FFMPEG to stream video+audio through RTMP. 4. Can someone help me with this: The video streams fine but I can't hear any audio. I just hear random click sounds. Please help: ffmpeg -f video4linux2 -channel 1 -i /dev/video0 -f alsa -i plughw:2,0 -r 25 -vcodec libx264 -strict experimental -acodec aac -b:a 20k -b:v 200k -aspect 4:3 -s ... Sep 23, 2021 · The next command listed processes audio files other than mp3. It functions the same as the previous command but writes standard metadata (if present) from the first audio file to the merged file: ffmpeg -f concat -i confiles.txt -i metadatafile1.txt -map_metadata 1 -c copy filename1_merged.ext. ffmpeg – calls ffmpeg. Stream FFMPEG based Audio and Video using WebRtc. It is the most fastest P2P based streamer which gets Audio and Video from FFMPEG and then stream it to **WebRtc Endpoints** (Android, iOS, Web) and **Media Servers** like (Ant-Media). Streaming a simple RTP audio stream from FFmpeg. FFmpeg can stream a single stream using the RTP protocol. In order to avoid buffering problems on the other hand, the streaming should be done through the -re option, which means that the stream will be streamed in real-time (i.e. it slows it down to simulate a live streaming source. FFmpeg is a hyper fast real time audio/video encoder, a streaming server and a generic audio and video file converter. It is a command line tool that is composed of a collection of free software / open source libraries. It includes libavcodec, an audio/video codec library used by several other projects, and libavformat, an audio/video container ... FFmpeg is a hyper fast real time audio/video encoder, a streaming server and a generic audio and video file converter. It is a command line tool that is composed of a collection of free software / open source libraries. It includes libavcodec, an audio/video codec library used by several other projects, and libavformat, an audio/video container ... Apr 08, 2020 · If this is starting to feel complex, don’t worry, here’s the recommended settings for normalizing audio with loudnorm: $ ffmpeg -i input.mp3 -af loudnorm=I=-16:LRA=11:TP=-1.5 output.mp3. Tip: The above example has been found all over the internet, without a clear identity of who invented these exact variables. Play around with the values to ... Dec 08, 2021 · FFmpeg is a powerful command-line application able to record, stream, and convert multimedia files between multiple file types. This is great for compatibility with audio platforms with different format requirements. In this scenario I use separate host for the tools. Flowplayer is installed on a server running Apache, crtmp server is on a separate server and ffmpeg is installed on the streaming desktop. 2 Tools used. ffmpeg: This is the audio and video encoder. I will use this to capture the desktop with x11grab, audio from pulse and webcam from video4linux2. I hope you can help me to be able to live stream via FFmpeg over RTMP with audio. Thanks! Answer. Assuming you actually need to use OpenCV for the video, you have to add the audio directly to FFmpeg as Gyan commented, because OpenCV does not support audio.-re argument is probably required for live streaming.Mar 22, 2018 · FFMPEG HLS STREAM MULTIPLE AUDIO/SUBTITLES. ffmpeg 4. hls 2. streaming 7. multiple audio subtitles 1. encode 5. encode video ... The original descriptors are identified by " (AC-3 / 0x332D4341)" information. When using the option "-mpegts_flags +system_b", ffmpeg outputs the TS file with the following audio characteristics: Stream #0:1 [0x101] (por): Audio: ac3 ( [6] [0] [0] [0] / 0x0006), 48000Hz, stereo, fltp, 448 kb/s. This last option does seem to change stream type ... FFmpeg logo Harmonizing the order of audio streams in your video files can be done by using the free open source tool FFmpeg in the 'Terminal'. In order to use FFmpeg in the 'Terminal' of an Apple macOS computer you have to install it. Installation instructions can be found in my blog post ' Fixing corrupted AVI indexes '.Oct 16, 2019 · I tried the following command string which worked the first time. ffmpeg -i video.mp4 -i audio.mp3 -c:v copy -c:a aac muxed.mp4. To explain, after designating the two input files, the script copies the existing video file as-is (c:v copy), converts the MP3 audio to aac (c:a aac), and muxes the two into muxed.mp4. Then I tried this: FFmpeg - fast audio and video converter that can also grab data from live stream. By using Xabe.FFmpeg, developer is also able to use all of the FFmpeg features directly from the code. Xabe.FFmpeg is a cross-platform. It works on every system that supports .NET Core, it does not matter if it is Windows, Mac, or Linux operation system.Now that you know the original audio format, extract the audio from the video without re-encoding it using the below command: ffmpeg -i myvideo.mp4 -vn -acodec copy audio.ogg. Replace myvideo.mp4 with the video filename/path, and audio.ogg with the name you want to use for the audio output filename, and the extension.FFmpeg is a hyper fast real time audio/video encoder, a streaming server and a generic audio and video file converter. It is a command line tool that is composed of a collection of free software / open source libraries. It includes libavcodec, an audio/video codec library used by several other projects, and libavformat, an audio/video container ... Oct 29, 2015 · Extract audio from video file. To extract sound from a video file, and save it as Mp3 file, use the following command: $ ffmpeg -i video1.avi -vn -ar 44100 -ac 2 -ab 192 -f mp3 audio3.mp3. Explanation about the options used in above command. Source video : video.avi. Audio bitrate : 192kb/s. output format : mp3. A basic FFmpeg command uses the format. ffmpeg [input-options] -i [input-file] [output-options] [output-stream-URI]Where: [input-options] apply to the input, or source, file.For example, you can use -s to specify the size of the file. [input-file] is the video file or the stream URL.[output-options] apply to the output, or destination.For example, the -f option specifies the output container ...Streaming a simple RTP audio stream from FFmpeg FFmpeg can stream a single stream using the RTP protocol. In order to avoid buffering problems on the other hand, the streaming should be done through the -re option, which means that the stream will be streamed in real-time (i.e. it slows it down to simulate a live streaming source .display FFmpeg help and information about its codecs, formats, protocols, etc. use various filters in filterchains and filtergraphs; encode subtitles directly to the video stream; join various file formats, modify streams and modify audio channels; monetize uploads on video sharing websites; and much more [email protected]: 4.4.2: Play, record, convert, and stream audio and video: [email protected]: 2.8.20: Play, record, convert, and stream audio and video In this post you'll see how to create an HLS master playlist with ffmpeg for video on-demand. A master playlist contains references to different variant streams (typically encoded at different bit rates) and can also include links to alternative audio tracks and audio-only renditions. It allows a client device to choose the most appropriate stream based on factors such as the capabilities of ...For example, to set the third audio stream as default and remove default from the first audio stream (stream numbering starts at 0): ffmpeg -i input.mkv -map 0 -c copy -disposition:a:0 none -disposition:a:2 default output.mkv Jul 24, 2018 · Stream specifier ':a' in filtergraph description [0:v][1:v]vstack[video]; [0:a][1:a]amix=inputs=2[audio] matches no streams. It seems like :a does not refer to the audio stream. What is the proper way to specify the audio streams of my input videos as input streams for the amix filter? The first filter takes audio of input #0 ( 0:a ), reduces the volume to the half and stores it into a temporary stream called music. The second filter, takes the music and audio1.mp3, mixing them together. Mix two audio inputs into a video with delay In the examples above, the voice starts at the very beginning.Sep 23, 2021 · The next command listed processes audio files other than mp3. It functions the same as the previous command but writes standard metadata (if present) from the first audio file to the merged file: ffmpeg -f concat -i confiles.txt -i metadatafile1.txt -map_metadata 1 -c copy filename1_merged.ext. ffmpeg – calls ffmpeg. After starting the broker, an FFmpeg client may stream data to the broker using the command: ffmpeg -re -i input -f mpegts amqp://[[user]:[password]@]hostname[:port][/vhost] ... the streams to display can be chosen with -vst n and -ast n for video and audio respectively, and can be switched on the fly by pressing v and a.Extract audio stream from video without re-encoding# ffmpeg -i input-video.avi -vn -acodec copy output-audio.aac-vn is no video.-acodec copy use the same audio stream that's already in there. Rotate a video with FFmpeg# # Rotate 90 clockwise: ffmpeg -i in.mov -vf "transpose=1" out.mov. For the transpose parameter you can pass:Supports resolutions up to 4k and capture from SDI, HDMI, webcam, JACK & Pulse audio, IP stream, X11 screen and Windows... Downloads: 1 This Week Last Update: 2022-01-30. See Project.Sep 27, 2013 · I could figure out the way to stream an audio file using FFMPEG. The command for the same is given below: ffmpeg -re -f mp3 -i sender.mp3 -acodec libmp3lame -ab 128k -ac 2 -ar 44100 -f rtp rtp://10.14.35.23. Here the audio file 'sender.mp3' is located in the same folder as ffmpeg.exe. From the perspective of FFMPEG, it is converting a video file using the MPEG Transport Stream container into an MPEG-4 container. The -vcodec flag ensures that the libx264 or H264 codec is being used and the flag -codec:a copy is copying the original source audio stream into the newly converted file. Video Resolution and QualityNov 02, 2020 · For removing a specific audio track using FFmpeg, you can always use the map command. The general syntax of the map command is -map input_file_index:stream_type_specifier:stream_index. So, you could select the 2nd audio track of the video by saying -map 0:a:1 because the numbering starts at 0. In our example, if your file has 1 video track and ... FFmpeg Building FFmpeg with SRT. FFmpeg supports the SRT protocol out of the box. To include SRT, FFmpeg project should be built with the configure flag --enable-libsrt.Refer to FFmpeg's Compilation Guide for the detailed build instructions for a particular platform.. Please check Quickstart: Running SRT and FFmpeg on Ubuntu YouTube Video for additional instructions.The first filter takes audio of input #0 ( 0:a ), reduces the volume to the half and stores it into a temporary stream called music. The second filter, takes the music and audio1.mp3, mixing them together. Mix two audio inputs into a video with delay In the examples above, the voice starts at the very beginning.Let's discuss each of the steps in detail. Step 1 : Encoding The encoder encodes the audio/video using any one of the supported codecs and transfers the data to the RTMP-SERVER using the RTMP protocol. We would be using FFmpeg to encode and send data to the server. Following is the FFmpeg command to encode the video and transfer it to the server.First select the audio stream by using -af or -filter:a, then select the volume filter followed by the number that you want to change the stream by. For example: $ ffmpeg -i input.flac -af volume=1.5 ouput.flac. Here volume=1.5 provides a 150% volume gain, instead of 1.5 use for example 0.5 to half the volume.1 I really need some help with using FFMPEG to stream video and audio together through RTMP .I've overclocked my raspi 2 and tried as much as I could so far. The video streams fine but I can't hear any audio. I just hear random click sounds.Please help :FFmpeg Formats Documentation Table of Contents 1 Description 2 Format Options 2.1 Format stream specifiers 3 Demuxers 3.1 aa 3.2 aac 3.3 apng 3.4 asf 3.5 concat 3.5.1 Syntax 3.5.2 Options 3.5.3 Examples 3.6 dash 3.7 imf 3.8 flv, live_flv, kux 3.9 gif 3.10 hls 3.11 image2 3.11.1 Examples 3.12 libgme 3.13 libmodplug 3.14 libopenmpt 3.15 mov/mp4/3gpOct 16, 2019 · I tried the following command string which worked the first time. ffmpeg -i video.mp4 -i audio.mp3 -c:v copy -c:a aac muxed.mp4. To explain, after designating the two input files, the script copies the existing video file as-is (c:v copy), converts the MP3 audio to aac (c:a aac), and muxes the two into muxed.mp4. Then I tried this: In this post we will talk about how to use this very useful and versatile tool to send a video and / or audio feed to an online streaming service such as Periscope and YouTube. To achieve this we have prepared some useful bash scripts (.sh) which you can download directly from this GitHub project - or cut/paste from this article (see below).Return to the Command Prompt window, and run the following command. ffmpeg -list_devices true -f dshow -i dummy This command will return a list of devices that can record or output audio. This will include speakers, mics, and webcams. In this list, look for the name of the audio device i.e, your speakers that you want to record sound from.Please keep in mind that the Docker image doesn't include FFmpeg . if you need to use FFmpeg for an external command or anything else, you need to build a Docker image that contains both rtsp -simple-server and FFmpeg , by following instructions here. Basic usage. Publish a stream. For instance, you can publish a video/audio file with FFmpeg:.May 03, 2020 · FFmpeg Periscope - Audio only. This script, specifically designed for web radios or other audio-only broadcasts, will server a static image file as the video source and a separate audio source; both sources will be merged into a single broadcast content. The latest version of this script can be found on GitHub here. Apr 08, 2020 · If this is starting to feel complex, don’t worry, here’s the recommended settings for normalizing audio with loudnorm: $ ffmpeg -i input.mp3 -af loudnorm=I=-16:LRA=11:TP=-1.5 output.mp3. Tip: The above example has been found all over the internet, without a clear identity of who invented these exact variables. Play around with the values to ... 1. Choose audio You can use pavucontrol to choose which audio source ffmpeg will record, such as "desktop" or microphone. This is explained in Capturing ONLY desktop audio with ffmpeg. 2. Encode Now use ffmpeg to stream to YouTube:display FFmpeg help and information about its codecs, formats, protocols, etc. use various filters in filterchains and filtergraphs; encode subtitles directly to the video stream; join various file formats, modify streams and modify audio channels; monetize uploads on video sharing websites; and much more Return to the Command Prompt window, and run the following command. ffmpeg -list_devices true -f dshow -i dummy This command will return a list of devices that can record or output audio. This will include speakers, mics, and webcams. In this list, look for the name of the audio device i.e, your speakers that you want to record sound from.Jul 21, 2022 · For each acceptable stream type, ffmpeg will pick one stream, when available, from among all the inputs. It will select that stream based upon the following criteria: for video, it is the stream with the highest resolution, for audio, it is the stream with the most channels, for subtitles, it is the first subtitle stream found but there’s a caveat. Analysing this command line: "-re" is needed to stream the audio and the video at the correct rate (instead of streaming as fast as possible) "input.mpg" is the input file, to be streamed this example just streams the audio and the video tracks without re-encoding them... Hence, "-vcodec copy" and "-acodec copy"Jul 24, 2018 · Stream specifier ':a' in filtergraph description [0:v][1:v]vstack[video]; [0:a][1:a]amix=inputs=2[audio] matches no streams. It seems like :a does not refer to the audio stream. What is the proper way to specify the audio streams of my input videos as input streams for the amix filter? In most cases, ffmpeg automatically detects all needed options to read a video or audio stream or file. But it is possible in rare cases that you will need to set options to help ffmpeg out. First, check that your stream is playable by ffmpeg outside of Home Assistant with (use option -an or -vn to disable video or audio stream):Jul 05, 2021 · FFmpeg is a command-line tool for converting audio and video formats, and it can also capture and encode in real-time from hardware and software sources. FFmpeg streaming, as you might now guess, is incorporating FFmpeg into your live streaming workflow. It’s a whole suite of tools with significant capabilities for live streaming, it can work ... Please keep in mind that the Docker image doesn't include FFmpeg . if you need to use FFmpeg for an external command or anything else, you need to build a Docker image that contains both rtsp -simple-server and FFmpeg , by following instructions here. Basic usage. Publish a stream. For instance, you can publish a video/audio file with FFmpeg:.